8 votos

¿Qué es esta "wvm" archivo, y puedo deshacerme de él?

Tengo una Nexus 7 corriendo Jelly Bean. Usando el Android de Transferencia de Archivos de programa, me estaba examinando el contenido de la parte de la unidad interna y encontré este:

/Android/data/com.google.android.videos/files/Movies/bWF0dGhldy5ob2x0QGdtYWlsLmNvbQ/framework_LFL4UnYvaGE.wvm (2.82 GB, la última modificación 18 de Julio de 2012, 7:59 PM)

En otro directorio (adyacente a bWF0dGhldy5ob2x0QGdtYWlsLmNvbQ), hay una subtítulos directorio que contiene dos archivos:

LFL4UnYvaGE.cc (264 bytes) y LFL4UnYvaGE.en.cc (129 KB), ambos modificados en el mismo día (18 de Julio, pero antes en el día, a las 5:57 PM).

enter image description here

Como se puede ver, la .wvm archivo es muy grande. He intentado cambiar el nombre de su padre Películas de la carpeta a Movies2 a ver si se rompió nada y hasta el momento no parece importar. Traté de copiar a mi Mac pero dice que no puede copiar el archivo (sin embargo, puede copiar la carpeta principal(s) de acuerdo). Y yo no tiene actualmente ninguna de las películas (que yo sepa) guardado en mi tablet, ya sea desde la Play store o copian de mi equipo.

Lo que hace este archivo de hacer, y sería seguro para eliminar (y los asociados subtítulos) para ahorrar espacio?

13voto

David Pierre Puntos5039

Estos archivos son para el Transformers: el lado Oscuro de la Luna, película que fue incluido promotionally con su Nexus 7. La película no fue, al menos en mi caso, pre-instalado en el dispositivo, como se toma una cantidad considerable de su espacio de almacenamiento disponible (especialmente si usted tiene una de 8 gb de la unidad!).

Supongo que usted debe en algún momento, sin saberlo, golpeó el pequeño "botón" en el video diciendo que se descargue la película para su uso sin conexión.


La primera cosa que vino a mi mente fue, que esto puede ser un archivo de vídeo WebM (contenedor Matroska + VP8 secuencia de vídeo + audio Vorbis stream). Hubiera tenido más sentido. Pero alimentar el archivo para MediaInfo se parece a esto:

$ mediainfo Downloads/framework_BpAYRcyW2_A.wvm
General
Complete name                            : Downloads/framework_BpAYRcyW2_A.wvm
Format                                   : MPEG-PS
File size                                : 2.73 GiB
Duration                                 : 2h 34mn
Overall bit rate                         : 2 532 Kbps

Video
ID                                       : 224 (0xE0)
Format                                   : AVC
Format/Info                              : Advanced Video Codec
Format profile                           : Main@L3.1
Format settings, CABAC                   : Yes
Format settings, ReFrames                : 3 frames
Duration                                 : 2h 34mn
Width                                    : 1 280 pixels
Height                                   : 536 pixels
Display aspect ratio                     : 2.40:1
Frame rate mode                          : Variable
Color space                              : YUV
Chroma subsampling                       : 4:2:0
Bit depth                                : 8 bits
Scan type                                : Progressive

Audio
ID                                       : 192 (0xC0)
Format                                   : AAC
Format/Info                              : Advanced Audio Codec
Format version                           : Version 4
Format profile                           : LC
Muxing mode                              : ADTS
Duration                                 : 2h 34mn
Bit rate mode                            : Variable / Variable / Variable
Minimum bit rate                         : 190 Kbps / 190 Kbps
Maximum bit rate                         : 231 Kbps / 231 Kbps
Channel(s)                               : 2 channels
Channel positions                        : Front: L R
Sampling rate                            : 44.1 KHz
Compression mode                         : Lossy

Menu

Un AVC flujo de vídeo y audio AAC stream, es lo que uno esperaría de un regular MP4, pero MPEG-formato PS (PS = flujo de programa) es inusual. Esta es la forma regular MP4 se ve en MediaInfo:

$ mediainfo .miro/Movies/FLOSS-Weekly/floss0222_h264m_864x480_500.mp4 
General
Complete name                            : .miro/Movies/FLOSS-Weekly/floss0222_h264m_864x480_500.mp4
Format                                   : MPEG-4
Format profile                           : Base Media
Codec ID                                 : isom
File size                                : 282 MiB
Duration                                 : 1h 5mn
Overall bit rate mode                    : Variable
Overall bit rate                         : 605 Kbps
Writing application                      : Lavf54.3.100

Video
ID                                       : 1
Format                                   : AVC
Format/Info                              : Advanced Video Codec
Format profile                           : Main@L3.1
Format settings, CABAC                   : Yes
Format settings, ReFrames                : 4 frames
Codec ID                                 : avc1
Codec ID/Info                            : Advanced Video Coding
Duration                                 : 1h 5mn
Bit rate                                 : 500 Kbps
Width                                    : 864 pixels
Height                                   : 480 pixels
Display aspect ratio                     : 16:9
Frame rate mode                          : Constant
Frame rate                               : 29.970 fps
Color space                              : YUV
Chroma subsampling                       : 4:2:0
Bit depth                                : 8 bits
Scan type                                : Progressive
Bits/(Pixel*Frame)                       : 0.040
Stream size                              : 233 MiB (83%)
Writing library                          : x264 core 120 r2164 da19765
Encoding settings                        : cabac=1 / ref=2 / deblock=1:0:0 / analyse=0x1:0x131 / me=umh / subme=6 / psy=1 / psy_rd=1.00:0.00 / mixed_ref=1 / me_range=16 / chroma_me=1 / trellis=1 / 8x8dct=0 / cqm=0 / deadzone=21,11 / fast_pskip=1 / chroma_qp_offset=-2 / threads=12 / sliced_threads=0 / nr=0 / decimate=1 / interlaced=0 / bluray_compat=0 / constrained_intra=0 / bframes=2 / b_pyramid=2 / b_adapt=1 / b_bias=0 / direct=1 / weightb=1 / open_gop=0 / weightp=2 / keyint=60 / keyint_min=31 / scenecut=0 / intra_refresh=0 / rc_lookahead=40 / rc=2pass / mbtree=1 / bitrate=500 / ratetol=1.0 / qcomp=0.60 / qpmin=0 / qpmax=51 / qpstep=4 / cplxblur=20.0 / qblur=0.5 / vbv_maxrate=1500 / vbv_bufsize=6000 / nal_hrd=none / ip_ratio=1.40 / aq=1:1.00
Language                                 : English

Audio
ID                                       : 2
Format                                   : AAC
Format/Info                              : Advanced Audio Codec
Format profile                           : LC
Codec ID                                 : 40
Duration                                 : 1h 5mn
Bit rate mode                            : Variable
Bit rate                                 : 96.0 Kbps
Maximum bit rate                         : 1 500 Kbps
Channel(s)                               : 2 channels
Channel positions                        : Front: L R
Sampling rate                            : 48.0 KHz
Compression mode                         : Lossy
Stream size                              : 44.7 MiB (16%)
Language                                 : English

El archivo [de la Nexus 7] incluso juega durante unos segundos en VLC y MPlayer, pero luego me da mensajes de error. Así que el formato no es compatible o es un tipo de cifrado.

10voto

Himanshu Puntos452

WVM es un archivo de vídeo que ha sido cifrado con la Widevine (ahora Google) plataforma DRM. Los primeros 10 segundos no son cifrados, por eso se puede ver en VLC.

3voto

Michael Puntos31

Un wvm archivo no es el mismo como wmv, el wvm es un video descargado de Google play películas y es un tipo de mpeg-4 de vídeo de archivo. Actualmente es incapaz de abrirse por cualquier otra cosa que la de Google play películas de aplicación, porque el DRM que rodean el archivo.

-1voto

Baran Puntos1

WMV y WVM no es lo mismo. Si la descarga de algunas películas en el android market en el interior de este formato de película WVM. Si desea comprobar si se puede.dentro de este archivo ( ALMACENAMIENTO - SDCARD0 - ANDROID - DATA - com.google.android.videos - ARCHIVOS - PELÍCULAS-Yi5zZW43OUBnbWFpbC5jb20 ) Todas esta película esta carpeta dentro. Puedes borrarla si lo deseas.

-3voto

Izzy Puntos45544

WMV stands para Windows Media Video -- así que lo que he encontrado es muy probable que sea un Video-archivo con los subtítulos. Podría ser un vídeo de demostración que se entregan junto con la solicitud en whichs directorio reside (Google Play Movies & TV). Yo diría que se debe ser seguro para eliminarlo, pero me gustaría, en primer lugar tratar de hacerlo a través de la aplicación de la misma, para asegurarse que (usted también podría primer juego para ver de qué se trata-además de eliminar desde allí podría asegurar que todos los datos conectados también se retira). En el peor de los casos, puede que necesite volver a instalar la aplicación.

PreguntAndroid.com

PreguntAndroid es una comunidad de usuarios de Android en la que puedes resolver tus problemas y dudas.
Puedes consultar las preguntas de otros usuarios, hacer tus propias preguntas o resolver las de los demás.

Powered by: